Torrent Details

The Sisters Brothers (2018) x 800 (1080p) 5 1 - 2 0 x264 Phun Psyz
The Sisters Brothers (2018) x 800 (1080p) 5 1 - 2 0 x264 Phun Psyz
Size2 GB in 1 file
ReleasesAdded on 01/19/19 at 4:03am into the Movies category by Unknown.
Status7 seeds & 2 peers.
Hash9bcab08284f49fcffcb49244cf00c12c246dc934
Rating
  • YourBT Visitors

Status This torrent has been verified.
*

Torrent Description

www.imdb.com/title/tt4971344/



In 1850s Oregon, a gold prospector is chased by the infamous duo of assassins, the Sisters brothers.



Source: LOST



















Format                      : MPEG-4

Format profile              : Base Media / Version 2

Codec ID                    : mp42 (isom/iso2/avc1/mp41)

File size                   : 2.03 GiB

Duration                    : 2 h 1 min

Overall bit rate mode       : Variable

Overall bit rate            : 2 395 kb/s



Video

ID                          : 1

Format                      : AVC

Format/Info                 : Advanced Video Codec

Format profile              : [email protected]

Format settings             : CABAC / 1 Ref Frames

Format settings, CABAC      : Yes

Format settings, ReFrames   : 1 frame

Codec ID                    : avc1

Codec ID/Info               : Advanced Video Coding

Duration                    : 2 h 1 min

Bit rate                    : 1 909 kb/s

Width                       : 1 920 pixels

Height                      : 800 pixels

Display aspect ratio        : 2.40:1

Frame rate mode             : Constant

Frame rate                  : 24.000 FPS

Color space                 : YUV

Chroma subsampling          : 4:2:0

Bit depth                   : 8 bits

Scan type                   : Progressive

Bits/(Pixel*Frame)          : 0.052

Stream size                 : 1.61 GiB (80%)

Writing library             : x264 core 155 r2901 7d0ff22



Audio #1

ID                          : 2

Format                      : AC-3

Format/Info                 : Audio Coding 3

Commercial name             : Dolby Digital

Codec ID                    : ac-3

Duration                    : 2 h 1 min

Bit rate mode               : Constant

Bit rate                    : 320 kb/s

Channel(s)                  : 6 channels

Channel layout              : L R C LFE Ls Rs

Sampling rate               : 48.0 kHz

Frame rate                  : 31.250 FPS (1536 SPF)

Bit depth                   : 16 bits

Compression mode            : Lossy

Stream size                 : 277 MiB (13%)

Title                       : Surround / Surround

Language                    : English



Audio #2

ID                          : 3

Format                      : AAC LC

Format/Info                 : Advanced Audio Codec Low Complexity

Codec ID                    : mp4a-40-2

Duration                    : 2 h 1 min

Bit rate mode               : Variable

Bit rate                    : 160 kb/s

Channel(s)                  : 2 channels

Channel layout              : L R

Sampling rate               : 48.0 kHz

Frame rate                  : 46.875 FPS (1024 SPF)

Compression mode            : Lossy

Stream size                 : 139 MiB (7%)

Title                       : Stereo / Stereo

Language                    : English



Similar Torrents

No Similar Torrents Found

If we find similar torrents, we normally show them right here. We couldn't find anything for "".

Torrent Trackers

TRACKER URLSEEDSPEERS
Onlineudp://tracker.coppersurfer.tk:6969/announce70
Onlineudp://tracker.opentrackr.org:1337/announce52
Onlineudp://tracker.pirateparty.gr:6969/announce50
Onlineudp://tracker.open-internet.nl:6969/announce40
Onlineudp://tracker.zer0day.to:1337/announce10

Files inside this torrent

FILENAMESIZE
icon The Sisters Brothers (2018) x 800 (1080p) 5.1 - 2.0 x264 Phun Psyz.mp42 GB